<?xml version="1.0" standalone="no"?>
<!DOCTYPE svg PUBLIC "-//W3C//DTD SVG 1.1//EN" "http://www.w3.org/Graphics/SVG/1.1/DTD/svg11.dtd" >
<svg xmlns="http://www.w3.org/2000/svg">
<metadata></metadata>
<defs>
<font id="open_sans_hebrewextra_bold" horiz-adv-x="0" >
<font-face units-per-em="2048" ascent="1638" descent="-410" />
<missing-glyph horiz-adv-x="532" />
<glyph horiz-adv-x="2048" />
<glyph horiz-adv-x="2048" />
<glyph horiz-adv-x="682" />
<glyph unicode="&#xd;" horiz-adv-x="682" />
<glyph unicode=" "  horiz-adv-x="532" />
<glyph unicode="&#x09;" horiz-adv-x="532" />
<glyph unicode="&#xa0;" horiz-adv-x="532" />
<glyph unicode="!" horiz-adv-x="594" d="M82 1462h432l-51 -946h-330zM86 166.5q0 90.5 54.5 141t156 50.5t154.5 -50t53 -141t-54.5 -141.5t-153 -50.5t-154.5 50.5t-56 141z" />
<glyph unicode="&#x22;" horiz-adv-x="1073" d="M121 1462h356l-41 -528h-274zM596 1462h356l-41 -528h-274z" />
<glyph unicode="#" horiz-adv-x="1356" d="M37 391v254h274l31 168h-238v260h287l72 389h268l-74 -389h166l72 389h268l-73 -389h229v-260h-277l-30 -168h243v-254h-290l-74 -391h-268l73 391h-168l-71 -391h-267l72 391h-225zM578 645h165l31 168h-166z" />
<glyph unicode="$" horiz-adv-x="1200" d="M80 1044q0 330 424 373v137h207v-135q195 -10 401 -98l-120 -285q-206 94 -376 94q-78 0 -111.5 -19t-33 -62t50 -71.5t215.5 -88.5q205 -72 298 -167.5t93 -244.5q0 -169 -107.5 -273.5t-309.5 -129.5v-193h-207v187q-222 11 -422 98v332q116 -58 252.5 -98t230.5 -40 t133 21t38.5 67t-56 76.5t-214.5 89.5t-237.5 118.5t-113.5 132t-35 179.5z" />
<glyph unicode="%" horiz-adv-x="1942" d="M37 1029q0 216 97.5 335t273.5 119t279.5 -122.5t103.5 -338.5t-99 -336.5t-277 -120.5t-278 124t-100 340zM338 1022q0 -217 76 -217q39 0 57 51t18 165.5t-18 166t-57 51.5t-57.5 -52t-18.5 -165zM412 0l811 1462h297l-811 -1462h-297zM1149 447.5q0 215.5 97.5 334.5 t273.5 119t279.5 -122.5t103.5 -338t-99.5 -336t-277 -120.5t-277.5 124t-100 339.5zM1450 440q0 -217 76 -217t76 217t-76 217q-39 0 -57.5 -52t-18.5 -165z" />
<glyph unicode="&#x26;" horiz-adv-x="1636" d="M71 394v12q0 261 272 401q-131 147 -131 326q0 159 123 254q124 94 338 94t330 -94q118 -93 118 -254q0 -113 -64 -206.5t-200 -176.5l199 -189q76 117 104 260h406q-29 -135 -94.5 -275.5t-145.5 -238.5l320 -307h-506l-99 102q-93 -58 -148 -79q-117 -43 -292 -43h-11 q-229 0 -374 118t-145 296zM474 434q0 -63 45 -103t119 -40q105 0 166 49l-248 252q-82 -61 -82 -158zM564 1120q0 -76 88 -155q56 32 86.5 76t30.5 91.5t-27.5 70t-72.5 22.5t-75 -26.5t-30 -78.5z" />
<glyph unicode="'" horiz-adv-x="598" d="M121 1462h356l-41 -528h-274z" />
<glyph unicode="(" horiz-adv-x="735" d="M74 583.5q0 584.5 280 919.5h326q-127 -177 -194.5 -414t-67.5 -501t65.5 -498t194.5 -414h-324q-280 323 -280 907.5z" />
<glyph unicode=")" horiz-adv-x="735" d="M55 1503h326q138 -165 209.5 -401t71.5 -519.5t-71.5 -515.5t-209.5 -391h-324q125 171 192.5 407t67.5 502t-66.5 502.5t-195.5 415.5z" />
<glyph unicode="*" horiz-adv-x="1100" d="M45 1014l45 291l348 -101l-39 352h303l-38 -352l356 101l37 -295l-314 -22l207 -277l-260 -138l-143 283l-123 -281l-272 136l206 277z" />
<glyph unicode="+" horiz-adv-x="1159" d="M72 588v268h372v367h269v-367h372v-268h-372v-361h-269v361h-372z" />
<glyph unicode="," horiz-adv-x="633" d="M57 -285q25 122 57 306t42 278h342l14 -23q-99 -386 -176 -561h-279z" />
<glyph unicode="-" horiz-adv-x="651" d="M43 393v312h565v-312h-565z" />
<glyph unicode="." horiz-adv-x="592" d="M86 167.5q0 91.5 54.5 141t156 49.5t154.5 -50t53 -141t-54.5 -141.5t-152.5 -50.5t-154.5 50.5t-56.5 142z" />
<glyph unicode="/" horiz-adv-x="905" d="M9 -20l546 1503h346l-545 -1503h-347z" />
<glyph unicode="0" horiz-adv-x="1200" d="M72 738q0 382 130.5 563.5t394.5 181.5t397.5 -190t133.5 -571.5t-131 -561.5q-129 -180 -397 -180q-528 0 -528 758zM465 730q0 -250 31.5 -342.5t104.5 -92.5t103 96q31 94 31 338t-31.5 341t-104 97t-103.5 -93.5t-31 -343.5z" />
<glyph unicode="1" horiz-adv-x="1200" d="M84 1053l502 409h356v-1462h-401v774q0 141 6 258q-43 -52 -92 -94l-166 -137z" />
<glyph unicode="2" horiz-adv-x="1200" d="M45 1249q111 99 190 144q157 90 371 90h10q133 0 244 -50.5t172.5 -141.5t61.5 -201v-7q0 -164 -88 -303q-49 -74 -121.5 -150t-315.5 -294v-10h553v-326h-1061v260l357 361q161 169 204 223t61.5 96t18.5 93.5t-37.5 84.5t-104 33t-136 -38t-162.5 -119z" />
<glyph unicode="3" horiz-adv-x="1200" d="M70 59v328q189 -96 379 -96q129 0 189 36.5t60 119t-70 116.5t-241 37h-90v297h92q301 0 301 154q0 56 -43.5 85t-120.5 29q-141 0 -290 -94l-164 264q116 79 236.5 113.5t279.5 34.5q227 0 356 -90t129 -248q0 -136 -83.5 -233.5t-239.5 -141.5v-6q366 -47 366 -346 q0 -203 -162 -322q-161 -116 -448 -116q-115 0 -215.5 16.5t-220.5 62.5z" />
<glyph unicode="4" horiz-adv-x="1200" d="M35 283v290l608 889h365v-884h161v-295h-161v-283h-390v283h-583zM377 578h241v170q0 48 3 129q4 81 6 86h-11q-37 -82 -77 -144z" />
<glyph unicode="5" horiz-adv-x="1200" d="M93 59v324q90 -41 199.5 -66.5t186.5 -25.5q111 0 169.5 47t58.5 134.5t-61 134t-181 46.5q-91 0 -201 -35l-145 72l55 772h834v-329h-498l-18 -193q96 18 172 18h6q187 0 311.5 -130t124.5 -328v-13q0 -248 -149 -377.5t-445 -129.5q-257 0 -419 79z" />
<glyph unicode="6" horiz-adv-x="1200" d="M70 618q0 454 196 660q99 104 239.5 153.5t330.5 51.5q86 0 208 -17v-309q-99 19 -217 19q-197 0 -294.5 -87t-106.5 -284h12q90 169 287.5 169t303.5 -125q108 -125 108 -358t-136 -372t-387.5 -139t-397.5 168.5t-146 469.5zM463 512q0 -96 40.5 -157.5t107.5 -61.5 t105 49.5t38 149.5q0 178 -138 178q-68 0 -110.5 -46t-42.5 -112z" />
<glyph unicode="7" horiz-adv-x="1200" d="M78 1133v327h1055v-233l-515 -1227h-409l502 1133h-633z" />
<glyph unicode="8" horiz-adv-x="1200" d="M68 385q0 128 61 217t205 162q-115 77 -169 166t-54 198q0 168 130.5 261.5t362.5 93.5t360 -93t128 -264q0 -118 -61 -204.5t-191 -151.5q161 -91 228 -183t67 -198q0 -196 -142 -302q-140 -107 -395.5 -107t-392.5 104.5t-137 300.5zM430 396.5q0 -58.5 44.5 -95.5 t121.5 -37q176 0 176 129q0 49 -39 96q-38 48 -137 107q-88 -46 -127 -93.5t-39 -106zM481 1092q0 -88 117 -152q74 42 97 75q26 35 26 79.5t-34.5 74t-85.5 29.5t-85.5 -29.5t-34.5 -76.5z" />
<glyph unicode="9" horiz-adv-x="1200" d="M53 958q0 244 139 381.5t379 137.5q269 0 414 -178q148 -178 148 -506q0 -428 -184.5 -620.5t-592.5 -192.5q-139 0 -204 11v312q83 -16 172 -16q215 0 328.5 89t123.5 275h-12q-39 -72 -77 -104q-78 -66 -230 -66q-191 0 -297.5 127.5t-106.5 349.5zM436 971.5 q0 -92.5 36 -140t103 -47.5t116 47q48 47 48 113q0 88 -45 153q-43 64 -111.5 64t-107.5 -48.5t-39 -141z" />
<glyph unicode=":" horiz-adv-x="592" d="M86 167.5q0 91.5 54.5 141t156 49.5t154.5 -50t53 -141t-54.5 -141.5t-152.5 -50.5t-154.5 50.5t-56.5 142zM86 956.5q0 90.5 55.5 140.5t156 50t153.5 -50t53 -140.5t-54 -141.5t-153 -51t-155 51t-56 141.5z" />
<glyph unicode=";" horiz-adv-x="608" d="M57 -285q25 122 57 306t42 278h342l14 -23q-99 -386 -176 -561h-279zM92 956.5q0 91.5 54 141t155 49.5t155 -50t54 -140.5t-54 -141.5t-154 -51t-155 50.5t-55 142z" />
<glyph unicode="&#x3c;" horiz-adv-x="1159" d="M72 627v172l1011 506v-297l-620 -283l620 -252v-295z" />
<glyph unicode="=" horiz-adv-x="1159" d="M72 358v271h1015v-271h-1015zM72 815v268h1015v-268h-1015z" />
<glyph unicode="&#x3e;" horiz-adv-x="1159" d="M72 178v295l620 252l-620 283v297l1011 -506v-172z" />
<glyph unicode="?" horiz-adv-x="1034" d="M0 1341q248 142 520 142q222 0 349 -97t127 -268q0 -120 -56 -209t-169.5 -161.5t-141 -105.5t-27.5 -75v-51h-307v86q0 98 40.5 165.5t132.5 125.5t126.5 99t34.5 88t-38 71.5t-99 24.5q-150 0 -353 -107zM252 166.5q0 92.5 53.5 142t155 49.5t155.5 -50.5t54 -141 t-55 -141t-153.5 -50.5t-154 49.5t-55.5 142z" />
<glyph unicode="@" horiz-adv-x="1837" d="M82 610q0 254 115 454t316 308.5t445 108.5t424 -89t276.5 -253.5t96.5 -382.5q0 -143 -49 -263q-48 -123 -134 -191.5t-196 -68.5q-79 0 -143 31.5t-100 87.5h-15q-107 -119 -260 -119q-182 0 -280.5 106.5t-98.5 299.5v12q0 204 139 333.5t362 129.5h10q79 0 181 -17.5 t177 -43.5l-21 -422l-2 -94q0 -86 49 -86q52 0 84 87q33 87 33 220q0 238 -134.5 368.5t-384.5 130.5h-9q-278 0 -443.5 -175.5t-165.5 -465.5v-10q0 -255 142 -393.5t394 -138.5t523 96v-229q-225 -95 -500 -95q-389 0 -610 202.5t-221 561.5zM760 641q0 -96 35 -143 t104 -47t107 62q36 62 47 220l10 156q-40 6 -69 6q-108 0 -171 -67.5t-63 -186.5z" />
<glyph unicode="A" horiz-adv-x="1487" d="M0 0l477 1468h527l483 -1468h-432l-73 274h-474l-74 -274h-434zM590 598h311l-63 240q-65 229 -95 389q-9 -51 -36 -168q-24 -113 -117 -461z" />
<glyph unicode="B" horiz-adv-x="1380" d="M158 0v1462h510q299 0 443 -89t144 -275q0 -123 -63 -210t-166 -112v-10q134 -36 196 -119t62 -219q0 -198 -149 -313t-408 -115h-569zM553 305h139q185 0 185 156q0 73 -49.5 112t-143.5 39h-131v-307zM553 901h119q86 0 132 35.5t46 103.5q0 123 -186 123h-111v-262z " />
<glyph unicode="C" horiz-adv-x="1329" d="M103 727v14q0 332 190.5 537t506.5 205h12q238 0 453 -103l-121 -311q-93 44 -171.5 67t-164.5 23q-140 0 -219.5 -115.5t-79.5 -318.5q0 -422 321 -422q149 0 371 92v-334q-183 -81 -414 -81q-331 0 -508 192q-176 193 -176 555z" />
<glyph unicode="D" horiz-adv-x="1503" d="M158 0v1462h506q352 0 543.5 -180t191.5 -520q0 -366 -201.5 -564t-566.5 -198h-473zM553 324h88q179 0 263 104t84 312.5t-79 305.5t-241 97h-115v-819z" />
<glyph unicode="E" horiz-adv-x="1124" d="M158 0v1462h868v-317h-473v-230h437v-317h-437v-276h473v-322h-868z" />
<glyph unicode="F" horiz-adv-x="1104" d="M158 0v1462h864v-317h-475v-279h437v-317h-437v-549h-389z" />
<glyph unicode="G" horiz-adv-x="1516" d="M104 731q0 359 202.5 555.5t565.5 196.5q264 0 474 -92l-125 -310q-157 78 -339 78t-276 -112.5t-94 -319.5t85.5 -314.5t246.5 -107.5q86 0 162 17v229h-261v305h631v-788q-255 -88 -565 -88q-339 0 -523 196t-184 555z" />
<glyph unicode="H" horiz-adv-x="1569" d="M158 0v1462h397v-542h459v542h397v-1462h-397v596h-459v-596h-397z" />
<glyph unicode="I" horiz-adv-x="713" d="M158 0v1462h397v-1462h-397z" />
<glyph unicode="J" horiz-adv-x="721" d="M-162 -131q94 -21 146 -21q96 0 139 58.5t43 202.5v1353h397v-1319q0 -298 -130.5 -450t-389.5 -152q-106 0 -205 21v307z" />
<glyph unicode="K" horiz-adv-x="1407" d="M158 0v1462h397v-635q33 64 121 187l306 448h433l-461 -655l453 -807h-446l-289 559l-117 -70v-489h-397z" />
<glyph unicode="L" horiz-adv-x="1192" d="M158 0v1462h395v-1143h563v-319h-958z" />
<glyph unicode="M" horiz-adv-x="1980" d="M158 0v1462h526l304 -1038h8l300 1038h527v-1462h-363v641q0 70 1 110.5t14 299.5h-9l-295 -1051h-376l-299 1053h-9q21 -269 21 -418v-635h-350z" />
<glyph unicode="N" horiz-adv-x="1708" d="M158 0v1462h516l532 -1016h6q-14 229 -14 355v661h352v-1462h-518l-534 1030h-9q19 -237 19 -371v-659h-350z" />
<glyph unicode="O" horiz-adv-x="1632" d="M104 732.5q0 366.5 182 559.5q183 193 531.5 193t528.5 -191t180 -560.5t-181 -561.5t-527.5 -192t-530.5 193q-183 193 -183 559.5zM520 735q0 -426 295 -426q150 0 222.5 103t72.5 321t-73 323t-220 105q-297 0 -297 -426z" />
<glyph unicode="P" horiz-adv-x="1294" d="M158 0v1462h506q274 0 414.5 -120t140.5 -346q0 -245 -145 -378t-410 -133h-111v-485h-395zM553 807h72q89 0 141.5 50t52.5 137q0 149 -164 149h-102v-336z" />
<glyph unicode="Q" horiz-adv-x="1632" d="M104 732.5q0 366.5 182 559.5q183 193 531.5 193t528.5 -191t180 -561q0 -498 -316 -670l357 -411h-492l-258 325l-1 1v1l-1 1q-344 0 -528 193q-183 193 -183 559.5zM520 735q0 -426 295 -426q150 0 222.5 103t72.5 321t-73 323t-220 105q-297 0 -297 -426z" />
<glyph unicode="R" horiz-adv-x="1386" d="M158 0v1462h479q596 0 596 -432q0 -254 -249 -393l427 -637h-448l-310 532h-100v-532h-395zM553 829h74q207 0 207 183q0 151 -203 151h-78v-334z" />
<glyph unicode="S" horiz-adv-x="1182" d="M90 72v352q109 -57 233.5 -90t217.5 -33t135.5 29.5t42.5 79.5q0 55 -70 98q-40 25 -189 92t-220 128q-141 120 -141 324.5t148 317.5t404 113q227 0 463 -105l-122 -305q-203 94 -353 94q-74 0 -110.5 -26t-36.5 -68t44 -78q39 -30 233.5 -118.5t269.5 -187t75 -245.5 v-8q0 -200 -154.5 -328t-406.5 -128h-12q-143 0 -244 20.5t-207 71.5z" />
<glyph unicode="T" horiz-adv-x="1210" d="M51 1139v323h1108v-323h-356v-1139h-395v1139h-357z" />
<glyph unicode="U" horiz-adv-x="1550" d="M150 573v889h397v-858q0 -153 57 -224t175 -71t172.5 69.5t54.5 227.5v856h395v-880q0 -288 -162 -445t-465.5 -157t-463.5 153t-160 440z" />
<glyph unicode="V" horiz-adv-x="1421" d="M0 1462h444l199 -741q62 -251 68 -344q8 75 29 181t36 159l202 745h443l-479 -1462h-465z" />
<glyph unicode="W" horiz-adv-x="2128" d="M31 1462h381l159 -733q55 -249 74 -387q14 109 47 278.5t62 288.5l129 553h366l125 -553q35 -146 67 -317t42 -250q15 121 71 385l162 735h381l-360 -1462h-467l-140 637q-7 26 -28.5 143.5t-34.5 213.5q-17 -138 -84 -438q-37 -166 -123 -556h-467z" />
<glyph unicode="X" horiz-adv-x="1481" d="M4 0l485 748l-456 714h438l264 -452l253 452h452l-464 -745l499 -717h-457l-285 457l-282 -457h-447z" />
<glyph unicode="Y" horiz-adv-x="1360" d="M0 1462h430l250 -542l252 542h428l-481 -891v-571h-398v559z" />
<glyph unicode="Z" horiz-adv-x="1251" d="M61 0v244l633 899h-618v319h1108v-243l-633 -900h649v-319h-1139z" />
<glyph unicode="[" horiz-adv-x="664" d="M117 -344v1847h499v-254h-182v-1339h182v-254h-499z" />
<glyph unicode="\" horiz-adv-x="905" d="M6 1483h346l545 -1503h-346z" />
<glyph unicode="]" horiz-adv-x="664" d="M47 -90h182v1339h-182v254h500v-1847h-500v254z" />
<glyph unicode="^" horiz-adv-x="1075" d="M-16 502l440 966h170l508 -966h-295l-289 577l-124 -291l-124 -286h-286z" />
<glyph unicode="_" horiz-adv-x="1024" d="M-4 -133h1032v-246h-1032v246z" />
<glyph unicode="`" horiz-adv-x="1225" d="M264 1548v21h430q53 -71 203 -233l59 -66v-29h-260q-69 43 -196 132.5t-236 174.5z" />
<glyph unicode="a" horiz-adv-x="1276" d="M74 348.5q0 175.5 123.5 265.5t367.5 101l189 6v16q0 140 -138 140q-124 0 -315 -84l-113 258q198 102 500 102q218 0 337.5 -109t119.5 -301v-743h-271l-75 150h-8q-81 -99 -162 -134.5t-211 -35.5q-160 0 -252 96.5t-92 272zM473 360q0 -104 111 -104q72 0 122 45 t50 117v88l-90 -4q-193 -7 -193 -142z" />
<glyph unicode="b" horiz-adv-x="1317" d="M135 0v1556h391v-352q0 -56 -14 -218h14q108 167 297 167t297 -156q109 -152 109 -427.5t-109.5 -432.5t-304.5 -157q-116 0 -200 51q-38 24 -89 80h-24l-62 -111h-305zM526 555q0 -139 38 -199.5t124 -60.5q69 0 106 71t37 207q0 273 -147 273q-82 0 -120 -57t-38 -179 v-55z" />
<glyph unicode="c" horiz-adv-x="1104" d="M86 561.5q0 282.5 155 435.5q155 156 441 156q196 0 371 -86l-115 -289q-81 35 -138.5 51.5t-117.5 16.5q-95 0 -147 -74t-52 -209q0 -272 201 -272q173 0 330 100v-311q-151 -100 -363 -100q-277 0 -421 149.5t-144 432z" />
<glyph unicode="d" horiz-adv-x="1317" d="M197 996q111 157 305 157q97 0 168 -39t129 -128h8q-19 132 -19 267v303h394v-1556h-295l-84 143h-15q-100 -163 -301 -163h-11q-173 0 -282 158q-109 157 -109 429q0 274 112 429zM481 560q0 -133 43 -202t129 -69t125.5 57.5t42.5 183.5v31q0 148 -42.5 212.5 t-135.5 64.5q-77 0 -119.5 -72.5t-42.5 -205.5z" />
<glyph unicode="e" horiz-adv-x="1266" d="M86 564.5q0 282.5 145 433.5q145 155 407 155t402 -134t140 -384v-174h-699q4 -95 69.5 -149t175 -54t193.5 19t187 67v-281q-96 -49 -192 -66t-232 -17q-282 0 -440 150q-156 152 -156 434.5zM489 707h336q-2 82 -46.5 131t-118 49t-118.5 -45t-53 -135z" />
<glyph unicode="f" horiz-adv-x="846" d="M45 840v192l158 96v19q0 225 91.5 322.5t293.5 97.5q78 0 148 -12t161 -42l-84 -253q-74 20 -141 20q-45 0 -65.5 -27.5t-20.5 -89.5v-30h241v-293h-241v-840h-391v840h-150z" />
<glyph unicode="g" horiz-adv-x="1241" d="M20 -180q0 204 252 262q-51 20 -90 70.5t-39 100t29 90.5t121 97q-89 40 -139 123.5t-50 200.5q0 184 126 286.5t360 102.5q36 0 113 -7.5t106 -12.5h395v-189l-155 -57q32 -59 32 -135q0 -185 -130 -285t-382 -100q-60 0 -100 8q-14 -26 -14 -49q0 -29 46 -44.5 t124 -15.5h188q381 0 381 -321q0 -207 -176 -322t-496 -115q-241 0 -371.5 81t-130.5 231zM350 -143.5q0 -45.5 52 -75t139 -29.5q141 0 227 35.5t86 91.5q0 82 -201 82h-153q-63 0 -107 -29q-43 -30 -43 -75.5zM473 762q0 -174 121 -174q117 0 117 174t-117 174 q-121 0 -121 -174z" />
<glyph unicode="h" horiz-adv-x="1372" d="M135 0v1556h391v-221q0 -155 -16 -343h18q55 86 131 123.5t181 37.5q190 0 295.5 -110t105.5 -306v-737h-393v618q0 228 -135 228q-96 0 -141.5 -80t-45.5 -268v-498h-391z" />
<glyph unicode="i" horiz-adv-x="666" d="M127 1415q0 89 49.5 131.5t157 42.5t158.5 -43.5t51 -130.5q0 -172 -208 -172t-208 172zM137 0v1133h391v-1133h-391z" />
<glyph unicode="j" horiz-adv-x="664" d="M-104 -162q64 -18 120 -18q119 0 119 171v1142h391v-1225q0 -186 -110 -293t-310 -107q-44 0 -111 8t-99 17v305zM125 1415q0 89 49.5 131.5t157 42.5t158.5 -43.5t51 -130.5q0 -172 -208 -172t-208 172z" />
<glyph unicode="k" horiz-adv-x="1350" d="M135 0v1556h393v-612q0 -160 -22 -307h8q68 109 121 176l254 320h436l-393 -482l418 -651h-447l-248 406l-127 -97v-309h-393z" />
<glyph unicode="l" horiz-adv-x="662" d="M135 0v1556h391v-1556h-391z" />
<glyph unicode="m" horiz-adv-x="2048" d="M135 0v1133h295l49 -141h23q45 78 130 119.5t195 41.5q245 0 344 -149h31q48 70 133.5 109.5t188.5 39.5q200 0 296.5 -102.5t96.5 -313.5v-737h-391v616q0 116 -31.5 173t-99.5 57q-90 0 -132 -77t-42 -241v-528h-392v616q0 116 -30.5 173t-96.5 57q-93 0 -134.5 -82.5 t-41.5 -267.5v-496h-391z" />
<glyph unicode="n" horiz-adv-x="1372" d="M135 0v1133h295l49 -141h23q100 161 342 161q189 0 293 -110t104 -306v-737h-391v618q0 115 -33 171.5t-104 56.5q-100 0 -143.5 -79.5t-43.5 -270.5v-496h-391z" />
<glyph unicode="o" horiz-adv-x="1305" d="M86 572.5q0 273.5 149 425.5q149 155 420 155h9q159 0 286 -71t197 -203t70 -300v-10q0 -278 -150 -433.5t-413 -155.5t-416 159q-152 160 -152 433.5zM483 568.5q0 -149.5 40 -224t129 -74.5t128 74t39 224t-39 222t-128 72t-129 -72t-40 -221.5z" />
<glyph unicode="p" horiz-adv-x="1317" d="M135 -492v1625h318l55 -145h18q110 165 300 165t296 -157q107 -155 107 -428.5t-111.5 -430.5t-302.5 -157q-89 0 -156.5 29.5t-132.5 101.5h-18q18 -118 18 -148v-455h-391zM526 571q0 -145 39 -210.5t118.5 -65.5t113.5 65t34 212t-34 210.5t-115 63.5t-117 -59 t-39 -185v-31z" />
<glyph unicode="q" horiz-adv-x="1317" d="M86 566.5q0 274.5 110.5 430.5t301.5 156q206 0 309 -161h8l29 141h338v-1625h-391v469q0 34 12 166h-12q-96 -163 -292.5 -163t-304.5 156t-108 430.5zM483 559q0 -146 40.5 -211t129 -65t128.5 55.5t40 185.5v47q0 150 -41 214.5t-135 64.5q-162 0 -162 -291z" />
<glyph unicode="r" horiz-adv-x="961" d="M135 0v1133h291l61 -181h19q49 90 137 145.5t176 55.5q47 0 97 -8l22 -4l-35 -369q-48 12 -133 12q-126 0 -185 -57t-59 -170v-557h-391z" />
<glyph unicode="s" horiz-adv-x="1092" d="M119 819q0 157 121.5 245.5t333.5 88.5t427 -96l-106 -252q-81 36 -165.5 60t-141.5 24q-96 0 -96 -47q0 -29 33 -50q40 -22 194 -83q119 -49 177 -96q114 -92 114 -269t-123.5 -270.5t-356.5 -93.5q-123 0 -218 14t-191 49v313q92 -41 201.5 -66.5t191.5 -25.5 q127 0 127 58q0 30 -36 53q-36 25 -206 92q-157 65 -218.5 146.5t-61.5 205.5z" />
<glyph unicode="t" horiz-adv-x="942" d="M53 840v158l174 124l101 238h256v-227h278v-293h-278v-441q0 -110 106 -110q80 0 189 39v-285q-80 -35 -151 -48q-71 -15 -167 -15q-195 0 -283 95.5t-88 297.5v467h-137z" />
<glyph unicode="u" horiz-adv-x="1372" d="M133 395v738h391v-619q0 -113 32 -169t103 -56q101 0 144 79t43 269v496h391v-1133h-295l-49 141h-23q-49 -78 -136.5 -119.5t-205.5 -41.5q-188 0 -291.5 109t-103.5 306z" />
<glyph unicode="v" horiz-adv-x="1251" d="M0 1133h408l192 -670l5 -23q13 -60 13 -92h7q0 51 18 113l201 672h407l-432 -1133h-387z" />
<glyph unicode="w" horiz-adv-x="1864" d="M25 1133h385l92 -435q44 -224 51 -372h6q3 95 55 350l105 457h432l96 -463q45 -216 58 -344h6q5 64 19 179.5t32 192.5l100 435h377l-311 -1133h-418l-129 540l-29 163l-20 131h-6q-49 -276 -66 -353l-115 -481h-411z" />
<glyph unicode="x" horiz-adv-x="1290" d="M9 0l366 578l-346 555h444l172 -318l176 318h445l-355 -555l369 -578h-444l-191 344l-190 -344h-446z" />
<glyph unicode="y" horiz-adv-x="1249" d="M-2 1133h412l192 -650q15 -56 19 -123h8q7 68 24 121l197 652h399l-448 -1205q-86 -230 -211.5 -325t-327.5 -95q-75 0 -160 17v307q53 -12 112 -12q110 0 168 77q29 37 62 119z" />
<glyph unicode="z" horiz-adv-x="1038" d="M49 0v223l469 611h-442v299h889v-242l-449 -592h470v-299h-937z" />
<glyph unicode="{" horiz-adv-x="887" d="M61 418v301q115 0 180.5 44.5t65.5 125.5v254q0 140 49 208.5t159.5 100t305.5 31.5v-279q-88 -3 -121 -14q-69 -22 -69 -92v-271q0 -114 -57 -174t-183 -78v-12q127 -20 183.5 -78.5t56.5 -167.5v-276q0 -39 20 -60.5t56.5 -32.5t113.5 -14v-278q-196 0 -306.5 32 t-159 101.5t-48.5 210.5v248q0 80 -66.5 125t-179.5 45z" />
<glyph unicode="|" horiz-adv-x="1042" d="M387 -446v2002h268v-2002h-268z" />
<glyph unicode="}" horiz-adv-x="887" d="M66 -66q105 4 147.5 29t42.5 78v276q0 109 56.5 167.5t183.5 78.5v12q-126 18 -183 78t-57 174v271q0 69 -70 92q-32 11 -120 14v279q195 0 305.5 -32t159.5 -100t49 -208v-254q0 -81 65 -125.5t180 -44.5v-301q-112 0 -178.5 -45.5t-66.5 -124.5v-248q0 -140 -49 -210 t-159.5 -102t-305.5 -32v278z" />
<glyph unicode="~" horiz-adv-x="1159" d="M72 526v281q104 108 264 108q66 0 130 -14t150 -49q129 -55 238 -55q51 0 113 32.5t118 88.5v-281q-105 -109 -264 -109q-71 0 -135.5 15.5t-144.5 48.5q-129 55 -238 55t-231 -121z" />
<glyph unicode="&#xa2;" horiz-adv-x="1200" d="M129 733q0 245 112.5 394t323.5 190v166h207v-154q169 -9 324 -84l-116 -289q-82 35 -138.5 51.5t-116.5 16.5q-95 0 -147 -74t-52 -209q0 -272 201 -272q173 0 330 100v-311q-127 -81 -285 -98v-180h-207v186q-213 31 -324.5 176.5t-111.5 390.5z" />
<glyph unicode="&#xa3;" horiz-adv-x="1200" d="M102 649v277h166v118q0 215 117 328t332.5 113t410.5 -82l-110 -289q-147 55 -252 55q-58 0 -85.5 -33t-27.5 -104v-106h343v-277h-343v-96q0 -151 -159 -227h671v-326h-1061v313q77 44 109 76q55 56 55 162v98h-166z" />
<glyph unicode="&#xa5;" horiz-adv-x="1200" d="M8 1462h400l192 -504l193 504h399l-363 -712h195v-211h-242v-117h242v-209h-242v-213h-364v213h-246v209h246v117h-246v211h190z" />
<glyph unicode="&#xa8;" horiz-adv-x="1233" d="M223 1413q0 74 45.5 116t124.5 42t125.5 -42.5t46.5 -114.5t-46.5 -114.5t-125.5 -42.5t-124.5 41t-45.5 115zM702 1414q0 74 45.5 115.5t125.5 41.5t127 -43t47 -114.5t-47 -114t-127 -42.5t-125.5 41.5t-45.5 115.5z" />
<glyph unicode="&#xa9;" horiz-adv-x="1688" d="M92 731q0 199 100 375q101 176 276 276.5t374.5 100.5t373 -98t276.5 -273.5t103 -380t-100.5 -377t-273.5 -273.5t-378.5 -101t-380.5 103t-272.5 276t-97.5 372zM256 730q0 -158 79.5 -295t216 -214.5t293.5 -77.5t293 78.5t215 214.5t79 294t-76.5 293t-214.5 215.5 t-297 80.5t-295 -79q-135 -77 -214 -214.5t-79 -295.5zM434 730.5q0 219.5 113 343.5t321 124q166 0 322 -78l-92 -205q-106 55 -211 55q-82 0 -127 -61.5t-45 -183t43 -179t135 -57.5q137 0 258 68v-231q-125 -64 -272 -64q-212 0 -329 124q-116 125 -116 344.5z" />
<glyph unicode="&#xab;" horiz-adv-x="1395" d="M74 561v27l389 483l280 -149l-272 -347l272 -348l-280 -147zM649 561v27l387 483l283 -149l-275 -347l275 -348l-283 -147z" />
<glyph unicode="&#xad;" horiz-adv-x="651" d="M43 393v312h565v-312h-565z" />
<glyph unicode="&#xae;" horiz-adv-x="1688" d="M92 731q0 199 100 375q101 176 276 276.5t374.5 100.5t373 -98t276.5 -273.5t103 -380t-100.5 -377t-273.5 -273.5t-378.5 -101t-380.5 103t-272.5 276t-97.5 372zM256 730q0 -158 79.5 -295t216 -214.5t293.5 -77.5t293 78.5t215 214.5t79 294t-76.5 293t-214.5 215.5 t-297 80.5t-295 -79q-135 -77 -214 -214.5t-79 -295.5zM506 313v875h291q407 0 407 -270q0 -88 -33.5 -147.5t-107.5 -94.5l194 -363h-290l-146 320h-35v-320h-280zM786 809h11q125 0 125 98q0 47 -27.5 66t-95.5 19h-13v-183z" />
<glyph unicode="&#xb4;" horiz-adv-x="1225" d="M264 1241v29q154 165 194.5 212t69.5 87h428v-21q-68 -55 -212 -157t-220 -150h-260z" />
<glyph unicode="&#xb8;" horiz-adv-x="383" d="M-90 -258q82 -27 147 -27q52 0 52 47q0 32 -40 58t-108 41l72 139h203l-9 -29q93 -38 131.5 -90.5t38.5 -132.5q0 -110 -75 -175t-204.5 -65t-207.5 29v205z" />
<glyph unicode="&#xbb;" horiz-adv-x="1395" d="M76 227l272 348l-272 347l282 149l387 -483v-27l-387 -481zM649 227l275 348l-275 347l285 149l387 -483v-27l-387 -481z" />
<glyph unicode="&#x2c6;" horiz-adv-x="1237" d="M164 1241v29q69 64 146 154t112 145h393q97 -140 256 -299v-29h-254q-84 48 -201 150q-123 -105 -194 -150h-258z" />
<glyph unicode="&#x2da;" horiz-adv-x="1120" d="M293 1489.5q0 115.5 71.5 184.5t191 69t196.5 -70.5t77 -182.5t-76 -182.5t-196.5 -70.5t-192 68.5t-71.5 184zM473 1489q0 -38 21.5 -61t60 -23t62.5 24t24 61t-24 60t-60 23t-60 -23t-24 -61z" />
<glyph unicode="&#x2dc;" horiz-adv-x="1225" d="M176 1237q11 175 72 258.5t180 83.5q50 0 168 -48t168 -48q54 0 72 98h182q-11 -167 -74 -254.5t-172 -87.5q-63 0 -180 48t-164 48q-54 0 -72 -98h-180z" />
<glyph unicode="&#x5b0;" d="M537 -188q0 40 25 63.5t68.5 23.5t68.5 -23.5t25 -63.5t-25 -63t-68.5 -23t-68.5 23t-25 63zM537 -429q0 40 25 63.5t68.5 23.5t68.5 -23.5t25 -63t-25 -63t-68.5 -23.5t-68.5 23t-25 63z" />
<glyph unicode="&#x5b1;" d="M285 -203q0 40 25 63.5t68 23.5t68.5 -23.5t25.5 -63.5t-25.5 -63t-68.5 -23t-68 23t-25 63zM437 -443.5q0 40.5 25 63.5t68 23t68 -23.5t25 -63t-25 -63t-68.5 -23.5t-68 23t-24.5 63.5zM581 -203q0 41 25 64t68.5 23t69.5 -24t26 -63.5t-26 -62.5t-70 -23t-68.5 22.5 t-24.5 63.5zM847 -203q0 40 25 63.5t68.5 23.5t68.5 -23.5t25 -63.5t-25 -63t-68.5 -23t-68.5 23t-25 63zM847 -444q0 40 25 63.5t68.5 23.5t68.5 -23.5t25 -63t-25 -63t-68.5 -23.5t-68.5 23t-25 63z" />
<glyph unicode="&#x5b2;" d="M351 -142h367v-117h-367v117zM803 -202.5q0 40.5 25 63.5t68 23t68 -23.5t25 -63.5t-25 -63t-68.5 -23t-68 23t-24.5 63.5zM803 -443.5q0 40.5 25 63.5t68 23t68 -23.5t25 -63t-25 -63t-68.5 -23.5t-68 23t-24.5 63.5z" />
<glyph unicode="&#x5b3;" d="M351 -142h367v-117h-128v-202h-111v202h-128v117zM806 -203q0 40 25 63.5t68.5 23.5t68.5 -23.5t25 -63.5t-25 -63t-68.5 -23t-68.5 23t-25 63zM806 -444q0 40 25 63.5t68.5 23.5t68.5 -23.5t25 -63t-25 -63t-68.5 -23.5t-68.5 23t-25 63z" />
<glyph unicode="&#x5b4;" d="M534 -198q0 41 25 64t68.5 23t69.5 -24t26 -63t-26 -62.5t-70 -23.5t-68.5 22.5t-24.5 63.5z" />
<glyph unicode="&#x5b5;" d="M387 -178.5q0 40.5 25 63.5t68 23t68 -23.5t25 -63t-25 -63t-68.5 -23.5t-68 23t-24.5 63.5zM682 -179q0 41 25 64t69 23t70 -24t26 -63t-26 -62.5t-70 -23.5t-69 22.5t-25 63.5z" />
<glyph unicode="&#x5b6;" d="M387 -202.5q0 40.5 25 63.5t68 23t68 -23.5t25 -63.5t-25 -63t-68.5 -23t-68 23t-24.5 63.5zM538 -444q0 40 25 63.5t68.5 23.5t68.5 -23.5t25 -63t-25 -63t-68.5 -23.5t-68.5 23t-25 63zM682 -203q0 41 25 64t69 23t70 -24t26 -63.5t-26 -62.5t-70 -23t-69 22.5 t-25 63.5z" />
<glyph unicode="&#x5b7;" d="M432 -118h393v-116h-393v116z" />
<glyph unicode="&#x5b8;" d="M438 -138h382v-117h-136v-202h-111v202h-135v117z" />
<glyph unicode="&#x5b9;" d="M535 1496q0 41 25 64t68.5 23t69.5 -24t26 -63t-26 -62.5t-70 -23.5t-68.5 22.5t-24.5 63.5z" />
<glyph unicode="&#x5ba;" d="M535 1496q0 41 25 64t68.5 23t69.5 -24t26 -63t-26 -62.5t-70 -23.5t-68.5 22.5t-24.5 63.5z" />
<glyph unicode="&#x5bb;" d="M394 -213.5q0 40.5 25 63.5t68 23t68 -23.5t25 -63.5t-25 -63t-68.5 -23t-68 23t-24.5 63.5zM575 -390q0 40 25 63.5t68.5 23.5t68.5 -23.5t25 -63t-25 -63t-68.5 -23.5t-68.5 23t-25 63zM760 -565q0 41 25 64t68.5 23t69.5 -24t26 -63t-26 -62.5t-70 -23.5t-68.5 22.5 t-24.5 63.5z" />
<glyph unicode="&#x5bc;" d="M534 656q0 41 25 64t68.5 23t69.5 -24t26 -63t-26 -62.5t-70 -23.5t-68.5 22.5t-24.5 63.5z" />
<glyph unicode="&#x5bd;" horiz-adv-x="1256" d="M576 -157h103v-352h-103v352z" />
<glyph unicode="&#x5be;" horiz-adv-x="651" d="M43 982v313h565v-313h-565z" />
<glyph unicode="&#x5c1;" d="M482 1496q0 41 25 64t68.5 23t69.5 -24t26 -63t-26 -62.5t-70 -23.5t-68.5 22.5t-24.5 63.5z" />
<glyph unicode="&#x5c2;" d="M535 1496q0 41 25 64t68.5 23t69.5 -24t26 -63t-26 -62.5t-70 -23.5t-68.5 22.5t-24.5 63.5z" />
<glyph unicode="&#x5c7;" d="M111 -110h410v-100h-161v-234h-93v234h-156v100z" />
<glyph unicode="&#x5d0;" horiz-adv-x="1378" d="M72 1295h432l258 -438l92 -144q16 35 16 108v474h388v-471q0 -62 -7.5 -107.5t-30.5 -98.5q-45 -110 -200 -168q191 -302 286 -450h-433l-351 584q-19 -30 -19 -110v-474h-387v471q0 60 8 107t32 100q48 110 202 168q-127 199 -286 449z" />
<glyph unicode="&#x5d1;" horiz-adv-x="1196" d="M82 0v299h557v523q0 193 -197 193q-124 0 -298 -17l-62 -6v297q121 26 397 26q182 0 287 -33q117 -36 166 -94q58 -66 76 -150q19 -83 19 -199v-540h141v-299h-1086z" />
<glyph unicode="&#x5d2;" horiz-adv-x="984" d="M50 0l33 343q68 -15 128 -15q110 0 180.5 53.5t70.5 167.5v335q0 125 -83 125q-89 0 -173 -22l-26 -7v303q126 32 242 32t193 -21.5t122 -56t71 -90.5t34 -112t8 -133v-902h-291l-61 182h-17q-12 -25 -46 -65t-67 -66.5t-86 -48.5t-105.5 -22t-126.5 20z" />
<glyph unicode="&#x5d3;" horiz-adv-x="1135" d="M23 996v299h1085v-274q-98 -38 -133.5 -86.5t-35.5 -155.5v-779h-388v786q0 131 93 210h-621z" />
<glyph unicode="&#x5d4;" horiz-adv-x="1349" d="M135 980v297q238 38 537 38q240 0 354 -62q59 -32 98 -72.5t59.5 -99.5t28 -118.5t7.5 -140.5v-822h-389v822q0 193 -196 193q-176 0 -416 -26zM136 0v755h387v-755h-387z" />
<glyph unicode="&#x5d5;" horiz-adv-x="658" d="M135 0v1295h388v-1295h-388z" />
<glyph unicode="&#x5d6;" horiz-adv-x="731" d="M92 996v299h616v-279q-51 -40 -88.5 -102.5t-57 -117.5t-27.5 -120t-9.5 -108t-1.5 -123v-445h-388v445q0 373 213 551h-257z" />
<glyph unicode="&#x5d7;" horiz-adv-x="1349" d="M135 0v1277q238 38 537 38q239 0 354 -59q60 -30 98.5 -69t59 -98t28 -120.5t7.5 -146.5v-822h-389v822q0 193 -196 193q-52 0 -111 -3v-1012h-388z" />
<glyph unicode="&#x5d8;" horiz-adv-x="1351" d="M130 665v630h389v-630q0 -374 175 -374q91 0 136 88.5t45 283t-39 270t-134 75.5l-48 -5v299q84 13 160.5 13t149.5 -18.5t132 -63t95 -119.5q74 -153 74 -449q0 -325 -151 -504.5t-429 -179.5q-116 0 -217.5 46.5t-176.5 132.5t-118 216.5t-43 288.5z" />
<glyph unicode="&#x5d9;" horiz-adv-x="635" d="M127 419v876h388v-604l-215 -272h-173z" />
<glyph unicode="&#x5da;" horiz-adv-x="1108" d="M23 995v304q170 16 408 16q124 0 220.5 -33t156.5 -87.5t99 -132.5q70 -139 70 -333v-1221h-387v1223q0 52 -4.5 89t-19 76t-40.5 63q-57 54 -179 54q-130 0 -275 -13z" />
<glyph unicode="&#x5db;" horiz-adv-x="1104" d="M66 7v303q155 -18 371 -18q108 0 152 72.5t44 200.5v166q0 52 -4.5 89t-19 76t-39.5 63q-58 54 -180 54q-130 0 -276 -13l-48 -5v304q170 16 408 16q124 0 220.5 -33t157 -87.5t99.5 -132.5q70 -139 70 -333v-164q0 -96 -12.5 -174.5t-48.5 -157.5t-95 -132.5t-158.5 -87 t-232.5 -33.5q-263 0 -408 27z" />
<glyph unicode="&#x5dc;" horiz-adv-x="1131" d="M50 996v555h388v-256h652v-237l-170 -577l1 1l-109 -482h-382l113 495l149 501h-642z" />
<glyph unicode="&#x5dd;" horiz-adv-x="1349" d="M135 0v1277q238 37 535 37t423 -99t126 -332v-883h-1084zM523 299h307v596q0 67 -49.5 93t-146.5 26l-111 -4v-711z" />
<glyph unicode="&#x5de;" horiz-adv-x="1425" d="M86 0l75 818q7 72 7 133q0 170 -63 344h340q35 -59 45 -132h14q17 20 57 49.5t78.5 49.5t100 36.5t144 16.5t158 -29.5t123.5 -79.5t77 -126q53 -135 53 -351v-729h-626v299h231v430q0 105 -11.5 153t-28.5 71q-38 54 -121 54q-35 0 -68 -13.5t-55 -33.5q-48 -43 -65 -72 l-8 -14l-75 -874h-382z" />
<glyph unicode="&#x5df;" horiz-adv-x="619" d="M28 1295h389q8 -22 19 -63t29.5 -165t18.5 -246v-1294h-389v1294q0 124 -16.5 242.5t-33.5 174.5z" />
<glyph unicode="&#x5e0;" horiz-adv-x="905" d="M72 0v299h303q12 49 12 106v478q0 52 -22.5 88.5t-73.5 36.5q-65 0 -136 -10l-26 -3v304q80 16 203 16t198 -23t121 -61.5t74.5 -95.5t39 -117.5t10.5 -134.5v-478q0 -94 -11.5 -195.5t-22.5 -155.5l-11 -54h-658z" />
<glyph unicode="&#x5e1;" horiz-adv-x="1308" d="M86 647q0 214 120 346l-107 -7v306q283 23 553.5 23t420 -175.5t149.5 -491t-151.5 -491.5t-420.5 -176t-416.5 174t-147.5 492zM479 647q0 -184 41.5 -271t133 -87t133.5 87.5t42 271.5t-42 275t-133 91l-78 -4q-97 -141 -97 -363z" />
<glyph unicode="&#x5e2;" horiz-adv-x="1314" d="M50 -70v308l311 47l-274 1010h387l157 -562l65 -324q75 87 94 298l52 588h386l-51 -570q-15 -173 -58 -283q-141 -366 -622 -442z" />
<glyph unicode="&#x5e3;" horiz-adv-x="1309" d="M43 862q0 91 35 173.5t90.5 134t131.5 84.5q139 61 311 61q200 0 331 -87q49 -32 94 -84t76 -120q67 -150 67 -376v-1140h-393v1140q0 204 -27 265q-29 66 -79 83q-29 10 -72.5 10t-79 -13.5t-52.5 -30.5t-27 -40q-14 -33 -14 -69t14 -67t36 -47q36 -26 73 -35l82 -17 l-62 -276l-97 3q-197 5 -313 106q-125 109 -125 342z" />
<glyph unicode="&#x5e4;" horiz-adv-x="1308" d="M86 848q0 105 35 187.5t90.5 134t132.5 84.5q138 61 310 61q200 0 332 -87q48 -32 93 -84t75 -120q68 -150 68 -376q0 -162 -31 -282.5t-81.5 -193t-126.5 -117t-154 -60t-189.5 -15.5t-225 7t-164.5 15l-52 7v293q228 -22 456 -22q101 0 139 91q24 56 28.5 113.5 t5.5 87.5t1 76t-1 76t-4.5 71.5t-10 68t-19.5 56.5t-31 46q-43 40 -99 40t-91.5 -13.5t-52.5 -30.5t-27 -40q-14 -33 -14 -69t14 -67t36 -47q36 -26 73 -35l82 -17l-62 -279l-97 6q-438 28 -438 434z" />
<glyph unicode="&#x5e5;" horiz-adv-x="1213" d="M0 1295h418l217 -603h9q51 0 73.5 34.5t22.5 112.5v456h387v-471q0 -215 -125 -320q-46 -38 -122.5 -62t-175.5 -24h-31v-910h-388v1074z" />
<glyph unicode="&#x5e6;" horiz-adv-x="1307" d="M45 1295h428l310 -499q30 81 41 201l25 298h386l-24 -261q-5 -50 -8.5 -81t-18.5 -96.5t-37 -115.5t-64 -113.5t-98 -115.5l243 -292v-220h-1153v299h526l143 -9l-237 296z" />
<glyph unicode="&#x5e7;" horiz-adv-x="1388" d="M135 -492v1272h388v-1272h-388zM135 996v299h1213v-224l-210 -556q-98 -259 -98 -454v-61h-385v61q0 77 25.5 218.5t63.5 243.5l178 473h-787z" />
<glyph unicode="&#x5e8;" horiz-adv-x="1126" d="M51 993v301q204 21 359.5 21t244 -15t148 -47t98 -72t59 -99.5t28 -119t7.5 -140.5v-822h-388v822q0 193 -196 193q-148 0 -360 -22z" />
<glyph unicode="&#x5e9;" horiz-adv-x="1616" d="M86 1295h377l50 -602q12 0 28 7t27.5 20t23 41.5t14.5 67.5l40 466h374l-39 -461q-6 -81 -28 -146.5t-51.5 -108t-69.5 -74.5t-76 -48t-78 -26q-60 -14 -126 -14h-16l12 -118h260q125 0 207.5 98.5t101.5 315.5l50 582h377l-53 -591q-15 -171 -63 -298t-113.5 -203.5 t-158.5 -123t-185.5 -63t-207.5 -16.5h-568z" />
<glyph unicode="&#x5ea;" horiz-adv-x="1437" d="M50 23v279q75 -14 127 -14t69.5 24.5t17.5 82.5v595l-138 -11v298q335 37 632 37t418 -94q41 -33 66 -69.5t40 -88.5q25 -87 25 -224v-838h-389v821q0 193 -196 193q-50 0 -70 -1v-618q0 -74 -10.5 -133t-39 -113t-74.5 -90q-100 -78 -295 -78q-44 0 -90 10.5t-69 20.5z " />
<glyph unicode="&#x5f3;" horiz-adv-x="512" d="M37 712q68 320 98 583h342l15 -22q-92 -366 -177 -561h-278z" />
<glyph unicode="&#x5f4;" horiz-adv-x="1022" d="M37 712q68 320 98 583h342l15 -22q-92 -366 -177 -561h-278zM547 712q68 320 98 583h341l15 -22q-92 -368 -176 -561h-278z" />
<glyph unicode="&#x2000;" horiz-adv-x="871" />
<glyph unicode="&#x2001;" horiz-adv-x="1743" />
<glyph unicode="&#x2002;" horiz-adv-x="871" />
<glyph unicode="&#x2003;" horiz-adv-x="1743" />
<glyph unicode="&#x2004;" horiz-adv-x="581" />
<glyph unicode="&#x2005;" horiz-adv-x="435" />
<glyph unicode="&#x2006;" horiz-adv-x="290" />
<glyph unicode="&#x2007;" horiz-adv-x="290" />
<glyph unicode="&#x2008;" horiz-adv-x="217" />
<glyph unicode="&#x2009;" horiz-adv-x="348" />
<glyph unicode="&#x200a;" horiz-adv-x="96" />
<glyph unicode="&#x2010;" horiz-adv-x="651" d="M43 393v312h565v-312h-565z" />
<glyph unicode="&#x2011;" horiz-adv-x="651" d="M43 393v312h565v-312h-565z" />
<glyph unicode="&#x2012;" horiz-adv-x="651" d="M43 393v312h565v-312h-565z" />
<glyph unicode="&#x2013;" horiz-adv-x="1024" d="M74 414v276h876v-276h-876z" />
<glyph unicode="&#x2014;" horiz-adv-x="2048" d="M74 414v276h1896v-276h-1896z" />
<glyph unicode="&#x2018;" horiz-adv-x="512" d="M20 899q100 391 177 561h278q-65 -303 -98 -583h-342z" />
<glyph unicode="&#x2019;" horiz-adv-x="512" d="M37 877q68 320 98 583h342l15 -22q-92 -366 -177 -561h-278z" />
<glyph unicode="&#x201a;" horiz-adv-x="633" d="M57 -285q25 122 57 306t42 278h342l14 -23q-99 -386 -176 -561h-279z" />
<glyph unicode="&#x201c;" horiz-adv-x="1022" d="M20 899q100 391 177 561h278q-65 -303 -98 -583h-342zM530 899q100 391 177 561h277q-65 -307 -97 -583h-342z" />
<glyph unicode="&#x201d;" horiz-adv-x="1022" d="M37 877q68 320 98 583h342l15 -22q-92 -366 -177 -561h-278zM547 877q68 320 98 583h341l15 -22q-92 -368 -176 -561h-278z" />
<glyph unicode="&#x201e;" horiz-adv-x="1143" d="M57 -285q25 122 57 306t42 278h342l14 -23q-99 -386 -176 -561h-279zM567 -285q75 361 99 584h342l14 -23q-99 -386 -176 -561h-279z" />
<glyph unicode="&#x2026;" horiz-adv-x="1776" d="M86 167.5q0 91.5 54.5 141t156 49.5t154.5 -50t53 -141t-54.5 -141.5t-152.5 -50.5t-154.5 50.5t-56.5 142zM678 167.5q0 91.5 54.5 141t156 49.5t154.5 -50t53 -141t-54.5 -141.5t-152.5 -50.5t-154.5 50.5t-56.5 142zM1270 167.5q0 91.5 54.5 141t156 49.5t154.5 -50 t53 -141t-54.5 -141.5t-152.5 -50.5t-154.5 50.5t-56.5 142z" />
<glyph unicode="&#x202f;" horiz-adv-x="348" />
<glyph unicode="&#x2039;" horiz-adv-x="819" d="M74 561v27l389 483l280 -149l-272 -347l272 -348l-280 -147z" />
<glyph unicode="&#x203a;" horiz-adv-x="819" d="M76 227l272 348l-272 347l282 149l387 -483v-27l-387 -481z" />
<glyph unicode="&#x205f;" horiz-adv-x="435" />
<glyph unicode="&#x20ac;" horiz-adv-x="1200" d="M55 467v205h129l-2 21v22l2 43h-129v205h148q51 254 212 387t414 133q181 0 349 -76l-119 -299q-121 51 -230 51t-170 -52t-73 -144h338v-205h-353l-2 -29v-14l2 -43h287v-205h-264q33 -164 260 -164q146 0 266 55v-323q-101 -55 -291 -55q-252 0 -411.5 126t-206.5 361 h-156z" />
<glyph unicode="&#x2122;" horiz-adv-x="1577" d="M37 1286v176h536v-176h-170v-545h-196v545h-170zM645 741v721h287l137 -480l150 480h276v-721h-195v400q0 71 7 110h-9l-151 -510h-165l-142 510h-9q7 -52 7 -110v-400h-193z" />
<glyph unicode="&#x25fc;" horiz-adv-x="1135" d="M0 0v1135h1135v-1135h-1135z" />
<glyph unicode="&#xfb2a;" horiz-adv-x="1616" d="M86 1295h377l50 -602q12 0 28 7t27.5 20t23 41.5t14.5 67.5l40 466h374l-39 -461q-6 -81 -28 -146.5t-51.5 -108t-69.5 -74.5t-76 -48t-78 -26q-60 -14 -126 -14h-16l12 -118h260q125 0 207.5 98.5t101.5 315.5l50 582h377l-53 -591q-15 -171 -63 -298t-113.5 -203.5 t-158.5 -123t-185.5 -63t-207.5 -16.5h-568zM1373 1475q0 41 25 64t68.5 23t69.5 -24t26 -63t-26 -62.5t-70 -23.5t-68.5 22.5t-24.5 63.5z" />
<glyph unicode="&#xfb2b;" horiz-adv-x="1616" d="M33 1475q0 41 25 64t68.5 23t69.5 -24t26 -63t-26 -62.5t-70 -23.5t-68.5 22.5t-24.5 63.5zM86 1295h377l50 -602q12 0 28 7t27.5 20t23 41.5t14.5 67.5l40 466h374l-39 -461q-6 -81 -28 -146.5t-51.5 -108t-69.5 -74.5t-76 -48t-78 -26q-60 -14 -126 -14h-16l12 -118 h260q125 0 207.5 98.5t101.5 315.5l50 582h377l-53 -591q-15 -171 -63 -298t-113.5 -203.5t-158.5 -123t-185.5 -63t-207.5 -16.5h-568z" />
<glyph unicode="&#xfb2c;" horiz-adv-x="1616" d="M86 1295h377l50 -602q12 0 28 7t27.5 20t23 41.5t14.5 67.5l40 466h374l-39 -461q-6 -81 -28 -146.5t-51.5 -108t-69.5 -74.5t-76 -48t-78 -26q-60 -14 -126 -14h-16l12 -118h260q125 0 207.5 98.5t101.5 315.5l50 582h377l-53 -591q-15 -171 -63 -298t-113.5 -203.5 t-158.5 -123t-185.5 -63t-207.5 -16.5h-568zM851 439.5q0 27.5 17 43.5t47 16t48 -16.5t18 -43t-18 -42.5t-48.5 -16t-47 15.5t-16.5 43zM1365 1475q0 41 25 64t68.5 23t69.5 -24t26 -63t-26 -62.5t-70 -23.5t-68.5 22.5t-24.5 63.5z" />
<glyph unicode="&#xfb2d;" horiz-adv-x="1616" d="M69 1466q0 41 25 64t68.5 23t69.5 -24t26 -63t-26 -62.5t-70 -23.5t-68.5 22.5t-24.5 63.5zM86 1295h377l50 -602q12 0 28 7t27.5 20t23 41.5t14.5 67.5l40 466h374l-39 -461q-6 -81 -28 -146.5t-51.5 -108t-69.5 -74.5t-76 -48t-78 -26q-60 -14 -126 -14h-16l12 -118 h260q125 0 207.5 98.5t101.5 315.5l50 582h377l-53 -591q-15 -171 -63 -298t-113.5 -203.5t-158.5 -123t-185.5 -63t-207.5 -16.5h-568zM851 439.5q0 27.5 17 43.5t47 16t48 -16.5t18 -43t-18 -42.5t-48.5 -16t-47 15.5t-16.5 43z" />
<glyph unicode="&#xfb2e;" horiz-adv-x="1378" d="M72 1295h432l258 -438l92 -144q16 35 16 108v474h388v-471q0 -62 -7.5 -107.5t-30.5 -98.5q-45 -110 -200 -168q191 -302 286 -450h-433l-351 584q-19 -30 -19 -110v-474h-387v471q0 60 8 107t32 100q48 110 202 168q-127 199 -286 449zM493 -126h393v-116h-393v116z" />
<glyph unicode="&#xfb2f;" horiz-adv-x="1378" d="M72 1295h432l258 -438l92 -144q16 35 16 108v474h388v-471q0 -62 -7.5 -107.5t-30.5 -98.5q-45 -110 -200 -168q191 -302 286 -450h-433l-351 584q-19 -30 -19 -110v-474h-387v471q0 60 8 107t32 100q48 110 202 168q-127 199 -286 449zM499 -126h382v-117h-136v-202 h-111v202h-135v117z" />
<glyph unicode="&#xfb30;" horiz-adv-x="1378" d="M72 1295h432l258 -438l92 -144q16 35 16 108v474h388v-471q0 -62 -7.5 -107.5t-30.5 -98.5q-45 -110 -200 -168q191 -302 286 -450h-433l-351 584q-19 -30 -19 -110v-474h-387v471q0 60 8 107t32 100q48 110 202 168q-127 199 -286 449zM544 161q0 41 25 64t68.5 23 t69.5 -24t26 -63t-26 -62.5t-70 -23.5t-68.5 22.5t-24.5 63.5z" />
<glyph unicode="&#xfb31;" horiz-adv-x="1196" d="M82 0v299h557v523q0 193 -197 193q-124 0 -298 -17l-62 -6v297q121 26 397 26q182 0 287 -33q117 -36 166 -94q58 -66 76 -150q19 -83 19 -199v-540h141v-299h-1086zM286 673q0 41 25 64t68.5 23t69.5 -24t26 -63t-26 -62.5t-70 -23.5t-68.5 22.5t-24.5 63.5z" />
<glyph unicode="&#xfb32;" horiz-adv-x="984" d="M50 0l33 343q68 -15 128 -15q110 0 180.5 53.5t70.5 167.5v335q0 125 -83 125q-89 0 -173 -22l-26 -7v303q126 32 242 32t193 -21.5t122 -56t71 -90.5t34 -112t8 -133v-902h-291l-61 182h-17q-12 -25 -46 -65t-67 -66.5t-86 -48.5t-105.5 -22t-126.5 20zM186 673 q0 41 25 64t68.5 23t69.5 -24t26 -63t-26 -62.5t-70 -23.5t-68.5 22.5t-24.5 63.5z" />
<glyph unicode="&#xfb33;" horiz-adv-x="1135" d="M23 996v299h1085v-274q-98 -38 -133.5 -86.5t-35.5 -155.5v-779h-388v786q0 131 93 210h-621zM182 673q0 41 25 64t68.5 23t69.5 -24t26 -63t-26 -62.5t-70 -23.5t-68.5 22.5t-24.5 63.5z" />
<glyph unicode="&#xfb34;" horiz-adv-x="1349" d="M135 980v297q238 38 537 38q240 0 354 -62q59 -32 98 -72.5t59.5 -99.5t28 -118.5t7.5 -140.5v-822h-389v822q0 193 -196 193q-176 0 -416 -26zM136 0v755h387v-755h-387zM581 673q0 41 25 64t68.5 23t69.5 -24t26 -63t-26 -62.5t-70 -23.5t-68.5 22.5t-24.5 63.5z" />
<glyph unicode="&#xfb35;" horiz-adv-x="658" d="M-94 673q0 41 25 64t68.5 23t69.5 -24t26 -63t-26 -62.5t-70 -23.5t-68.5 22.5t-24.5 63.5zM135 0v1295h388v-1295h-388z" />
<glyph unicode="&#xfb36;" horiz-adv-x="731" d="M-90 673q0 41 25 64t68.5 23t69.5 -24t26 -63t-26 -62.5t-70 -23.5t-68.5 22.5t-24.5 63.5zM92 996v299h616v-279q-51 -40 -88.5 -102.5t-57 -117.5t-27.5 -120t-9.5 -108t-1.5 -123v-445h-388v445q0 373 213 551h-257z" />
<glyph unicode="&#xfb38;" horiz-adv-x="1351" d="M130 665v630h389v-630q0 -374 175 -374q91 0 136 88.5t45 283t-39 270t-134 75.5l-48 -5v299q84 13 160.5 13t149.5 -18.5t132 -63t95 -119.5q74 -153 74 -449q0 -325 -151 -504.5t-429 -179.5q-116 0 -217.5 46.5t-176.5 132.5t-118 216.5t-43 288.5zM598 673 q0 41 25 64t68.5 23t69.5 -24t26 -63t-26 -62.5t-70 -23.5t-68.5 22.5t-24.5 63.5z" />
<glyph unicode="&#xfb39;" horiz-adv-x="635" d="M-106 925q0 41 25 64t68.5 23t69.5 -24t26 -63t-26 -62.5t-70 -23.5t-68.5 22.5t-24.5 63.5zM127 419v876h388v-604l-215 -272h-173z" />
<glyph unicode="&#xfb3a;" horiz-adv-x="1108" d="M23 995v304q170 16 408 16q124 0 220.5 -33t156.5 -87.5t99 -132.5q70 -139 70 -333v-1221h-387v1223q0 52 -4.5 89t-19 76t-40.5 63q-57 54 -179 54q-130 0 -275 -13zM186 673q0 41 25 64t68.5 23t69.5 -24t26 -63t-26 -62.5t-70 -23.5t-68.5 22.5t-24.5 63.5z" />
<glyph unicode="&#xfb3b;" horiz-adv-x="1104" d="M66 7v303q155 -18 371 -18q108 0 152 72.5t44 200.5v166q0 52 -4.5 89t-19 76t-39.5 63q-58 54 -180 54q-130 0 -276 -13l-48 -5v304q170 16 408 16q124 0 220.5 -33t157 -87.5t99.5 -132.5q70 -139 70 -333v-164q0 -96 -12.5 -174.5t-48.5 -157.5t-95 -132.5t-158.5 -87 t-232.5 -33.5q-263 0 -408 27zM258 673q0 41 25 64t68.5 23t69.5 -24t26 -63t-26 -62.5t-70 -23.5t-68.5 22.5t-24.5 63.5z" />
<glyph unicode="&#xfb3c;" horiz-adv-x="1131" d="M50 996v555h388v-256h652v-237l-170 -577l1 1l-109 -482h-382l113 495l149 501h-642zM212 673q0 41 25 64t68.5 23t69.5 -24t26 -63t-26 -62.5t-70 -23.5t-68.5 22.5t-24.5 63.5z" />
<glyph unicode="&#xfb3e;" horiz-adv-x="1425" d="M86 0l75 818q7 72 7 133q0 170 -63 344h340q35 -59 45 -132h14q17 20 57 49.5t78.5 49.5t100 36.5t144 16.5t158 -29.5t123.5 -79.5t77 -126q53 -135 53 -351v-729h-626v299h231v430q0 105 -11.5 153t-28.5 71q-38 54 -121 54q-35 0 -68 -13.5t-55 -33.5q-48 -43 -65 -72 l-8 -14l-75 -874h-382zM619 673q0 41 25 64t68.5 23t69.5 -24t26 -63t-26 -62.5t-70 -23.5t-68.5 22.5t-24.5 63.5z" />
<glyph unicode="&#xfb40;" horiz-adv-x="905" d="M72 0v299h303q12 49 12 106v478q0 52 -22.5 88.5t-73.5 36.5q-65 0 -136 -10l-26 -3v304q80 16 203 16t198 -23t121 -61.5t74.5 -95.5t39 -117.5t10.5 -134.5v-478q0 -94 -11.5 -195.5t-22.5 -155.5l-11 -54h-658zM104 673q0 41 25 64t68.5 23t69.5 -24t26 -63t-26 -62.5 t-70 -23.5t-68.5 22.5t-24.5 63.5z" />
<glyph unicode="&#xfb41;" horiz-adv-x="1308" d="M86 647q0 214 120 346l-107 -7v306q283 23 553.5 23t420 -175.5t149.5 -491t-151.5 -491.5t-420.5 -176t-416.5 174t-147.5 492zM479 647q0 -184 41.5 -271t133 -87t133.5 87.5t42 271.5t-42 275t-133 91l-78 -4q-97 -141 -97 -363zM560 673q0 41 25 64t68.5 23t69.5 -24 t26 -63t-26 -62.5t-70 -23.5t-68.5 22.5t-24.5 63.5z" />
<glyph unicode="&#xfb43;" horiz-adv-x="1309" d="M43 862q0 91 35 173.5t90.5 134t131.5 84.5q139 61 311 61q200 0 331 -87q49 -32 94 -84t76 -120q67 -150 67 -376v-1140h-393v1140q0 204 -27 265q-29 66 -79 83q-29 10 -72.5 10t-79 -13.5t-52.5 -30.5t-27 -40q-14 -33 -14 -69t14 -67t36 -47q36 -26 73 -35l82 -17 l-62 -276l-97 3q-197 5 -313 106q-125 109 -125 342zM506 867q0 41 25 64t68.5 23t69.5 -24t26 -63t-26 -62.5t-70 -23.5t-68.5 22.5t-24.5 63.5z" />
<glyph unicode="&#xfb44;" horiz-adv-x="1308" d="M86 848q0 105 35 187.5t90.5 134t132.5 84.5q138 61 310 61q200 0 332 -87q48 -32 93 -84t75 -120q68 -150 68 -376q0 -162 -31 -282.5t-81.5 -193t-126.5 -117t-154 -60t-189.5 -15.5t-225 7t-164.5 15l-52 7v293q228 -22 456 -22q101 0 139 91q24 56 28.5 113.5 t5.5 87.5t1 76t-1 76t-4.5 71.5t-10 68t-19.5 56.5t-31 46q-43 40 -99 40t-91.5 -13.5t-52.5 -30.5t-27 -40q-14 -33 -14 -69t14 -67t36 -47q36 -26 73 -35l82 -17l-62 -279l-97 6q-438 28 -438 434zM560 846q0 41 25 64t68.5 23t69.5 -24t26 -63t-26 -62.5t-70 -23.5 t-68.5 22.5t-24.5 63.5z" />
<glyph unicode="&#xfb46;" horiz-adv-x="1307" d="M45 1295h428l310 -499q30 81 41 201l25 298h386l-24 -261q-5 -50 -8.5 -81t-18.5 -96.5t-37 -115.5t-64 -113.5t-98 -115.5l243 -292v-220h-1153v299h526l143 -9l-237 296zM170 528q0 41 25 64t68.5 23t69.5 -24t26 -63t-26 -62.5t-70 -23.5t-68.5 22.5t-24.5 63.5z" />
<glyph unicode="&#xfb47;" horiz-adv-x="1388" d="M135 -492v1272h388v-1272h-388zM135 996v299h1213v-224l-210 -556q-98 -259 -98 -454v-61h-385v61q0 77 25.5 218.5t63.5 243.5l178 473h-787zM554 673q0 41 25 64t68.5 23t69.5 -24t26 -63t-26 -62.5t-70 -23.5t-68.5 22.5t-24.5 63.5z" />
<glyph unicode="&#xfb48;" horiz-adv-x="1126" d="M51 993v301q204 21 359.5 21t244 -15t148 -47t98 -72t59 -99.5t28 -119t7.5 -140.5v-822h-388v822q0 193 -196 193q-148 0 -360 -22zM266 673q0 41 25 64t68.5 23t69.5 -24t26 -63t-26 -62.5t-70 -23.5t-68.5 22.5t-24.5 63.5z" />
<glyph unicode="&#xfb49;" horiz-adv-x="1616" d="M86 1295h377l50 -602q12 0 28 7t27.5 20t23 41.5t14.5 67.5l40 466h374l-39 -461q-6 -81 -28 -146.5t-51.5 -108t-69.5 -74.5t-76 -48t-78 -26q-60 -14 -126 -14h-16l12 -118h260q125 0 207.5 98.5t101.5 315.5l50 582h377l-53 -591q-15 -171 -63 -298t-113.5 -203.5 t-158.5 -123t-185.5 -63t-207.5 -16.5h-568zM851 439.5q0 27.5 17 43.5t47 16t48 -16.5t18 -43t-18 -42.5t-48.5 -16t-47 15.5t-16.5 43z" />
<glyph unicode="&#xfb4a;" horiz-adv-x="1437" d="M50 23v279q75 -14 127 -14t69.5 24.5t17.5 82.5v595l-138 -11v298q335 37 632 37t418 -94q41 -33 66 -69.5t40 -88.5q25 -87 25 -224v-838h-389v821q0 193 -196 193q-50 0 -70 -1v-618q0 -74 -10.5 -133t-39 -113t-74.5 -90q-100 -78 -295 -78q-44 0 -90 10.5t-69 20.5z M686 663q0 41 25 64t68.5 23t69.5 -24t26 -63t-26 -62.5t-70 -23.5t-68.5 22.5t-24.5 63.5z" />
<glyph unicode="&#xfb4b;" horiz-adv-x="658" d="M129 1475q0 41 25 64t68.5 23t69.5 -24t26 -63t-26 -62.5t-70 -23.5t-68.5 22.5t-24.5 63.5zM135 0v1295h388v-1295h-388z" />
</font>
</defs>
</svg>
